Orchestral Manoeuvres In The Dark - Saarbrucken SR1 (jcarr73729) (MP2)
 
Album info
 
Length  : 50:13
Format  : MP3
Rating  : 9
Live  : Yes
Recording Date  : 12-06-2013
Track List
 
01 intro 00:30
02 Electricity 03:49
03 Messages 04:46
04 History Of Modern, Part 1 04:14
05 Metroland 04:20
06 If You Leave 04:45
07 Souvenir 04:18
08 She's Leaving 03:35
09 Maid Of Orleans 03:49
10 Sister Mary 04:15
11 Dresden 03:44
12 Sailing On The Seven Seas 04:18
13 Enola Gay 03:42
14 outro 00:08

Notes
Recorded at the Halberg Funkhaus, Saarbrucken, Germany. Excellent recording, taken from a digital broadcast.


From the info file:

OMD
Saarbrucken Halberg Funkhaus
12 June 2013

01 - intro
02 - Electricity
03 - Messages
04 - History Of Modern, Part 1
05 - Metroland
06 - If You Leave
07 - commercial break (omitted)
08 - Souvenir
09 - She’s Leaving
10 - Maid Of Orleans
11 - Sister Mary
12 - Dresden
13 - Sailing On The Seven Seas
14 - Enola Gay
15 - outro

Radio SR1
Astra DVB MP2 @ 320kbps/48kHz
27 June 2013


Lineage:
Hauppauge WinTV-HVR-4400-HD internal card > MPEG TS Video > Total Video Converter > MP2 320kbps/48kHz > MP3DirectCut edits

This is a digital satellite radio broadcast, captured on an internal TV card. Hauppauge records DVB in MPEG TS video format. I have used TVC to extract the MP2 audio track, retaining the original audio broadcast codec. MP3 Direct Cut was used to edit the complete broadcast.





foobar2000 1.1.10 / Dynamic Range Meter 1.1.1
log date: 2013-06-29 18:14:21

--------------------------------------------------------------------------------
Analyzed: OMD / Saarbrucken Halberg Funkhaus SR1
--------------------------------------------------------------------------------

DR Peak RMS Duration Track
--------------------------------------------------------------------------------
DR12 -2.89 dB -18.25 dB 0:31 01-intro
DR12 -1.49 dB -14.47 dB 3:49 02-Electricity
DR12 -1.48 dB -15.47 dB 4:47 03-Messages
DR11 -1.98 dB -14.68 dB 4:14 04-History Of Modern, Part 1
DR12 -1.02 dB -15.37 dB 4:21 05-Metroland
DR11 -2.01 dB -14.16 dB 4:44 06-If You Leave
DR11 -0.32 dB -15.05 dB 1:53 07-commercial break
DR13 -2.25 dB -16.60 dB 4:19 08-Souvenir
DR12 -2.15 dB -15.37 dB 3:35 09-She's Leaving
DR12 -2.32 dB -15.48 dB 3:50 10-Maid Of Orleans
DR12 -1.34 dB -15.54 dB 4:16 11-Sister Mary
DR12 -1.13 dB -14.38 dB 3:44 12-Dresden
DR12 -2.07 dB -15.23 dB 4:18 13-Sailing On The Seven Seas
DR11 -1.59 dB -14.35 dB 3:42 14-Enola Gay
DR14 -2.92 dB -17.39 dB 0:09 15-outro
--------------------------------------------------------------------------------

Number of tracks: 15
Official DR value: DR12

Samplerate: 48000 Hz
Channels: 2
Bitrate: 320 kbps
Codec: MP2